Тайгинский портал

Форекс на Автопилоте 2015

5 октября 2015 - Painkiller9033
article424.jpg

В оригинале: Форекс на Автопилоте
Разработчик: TradeLikeaPro
Язык интерфейса: RUS
Год: 2015

Описание

Маркетологами создано очень много мифов об автоматической торговле на форекс. Образ трейдера, купившего чудо-робот и получающего большие доходы валяясь на пляже, заезжен донельзя в рекламе лохотронов. Задача курса "Форекс на Автопилоте" - это, прежде всего, убрать невежество в отношении торговли советниками, развеять некоторые мифы и дать необходимую начальную информацию для всех, кто хочет зарабатывать на форекс, но не имеет возможности часами торчать перед монитором, торгуя вручную. 

Системные требования
• Операционная система Microsoft Windows 98/Me/200/XP/Vista/7
• Процессор Pentium II 500 Мгц
• 128 Мб оперативной памяти
• Разрешение экрана 1024x768 с глубиной цвета 16 бит
• Наличие проигрывателя видео файлов

Запуск
ярлык start.exe

Формат : MPEG-4
Профиль формата : Base Media / Version 2
Идентификатор кодека : mp42
Размер файла : 39,3 Мбайт
Продолжительность : 23 м.
Общий поток : 237 Кбит/сек
Дата кодирования : UTC 2012-12-30 17:34:50
Дата пометки : UTC 2012-12-30 17:34:50

Видео
Идентификатор : 1
Формат : AVC
Формат/Информация : Advanced Video Codec
Профиль формата : High@L3.1
Параметр CABAC формата : Да
Параметр ReFrames формата : 4 кадра
Параметр GOP формата : M=1, N=75
Идентификатор кодека : avc1
Идентификатор кодека/Информация : Advanced Video Coding
Продолжительность : 23 м.
Продолжительность оригинала : 23 м.
Битрейт : 161 Кбит/сек
Ширина : 1280 пикселей
Высота : 720 пикселей
Соотношение сторон : 16:9
Режим частоты кадров : Постоянный
Частота кадров : 15,000 кадров/сек
Цветовое пространство : YUV
Субдискретизация насыщенности : 4:2:0
Битовая глубина : 8 бит
Тип развёртки : Прогрессивная
Бит/(Пиксели*Кадры) : 0.012
Размер потока : 26,7 Мбайт (68%)
Размер потока оригинала : 26,7 Мбайт (68%)
Язык : English
Дата кодирования : UTC 2012-12-30 17:34:50
Дата пометки : UTC 2012-12-30 17:34:50
Основные цвета : BT.709
Характеристики трансфера : BT.709
Коэффициенты матрицы : BT.709
colour_range : Limited
mdhd_Duration : 1390370

Аудио
Идентификатор : 2
Формат : AAC
Формат/Информация : Advanced Audio Codec
Профиль формата : LC
Идентификатор кодека : 40
Продолжительность : 23 м.
Продолжительность оригинала : 23 м.
Вид битрейта : Постоянный
Битрейт : 73,9 Кбит/сек
Каналы : 2 канала
Расположение каналов : Front: L R
Частота : 44,1 КГц
Метод сжатия : С потерями
Размер потока : 12,2 Мбайт (31%)
Размер потока оригинала : 12,2 Мбайт (31%)
Язык : English
Дата кодирования : UTC 2012-12-30 17:34:50
Дата пометки : UTC 2012-12-30 17:34:50
mdhd_Duration : 1389576

Уважаемый Пользователь!
Для того что бы скачать с нашего сервера файлы вам надо нажать по ссылкам ниже!

Похожие статьи:

 Название: EVEREST.Ultimate.Edition.5.50.2100.Final В оригинале:...
Название: Мастер Wordpress  Разработчик: Александр Обудёнов Язык интерфейса: RUS Год: 2012 ...
Рейтинг: 0 Голосов: 0 305 просмотров
Комментарии (0)
Добавить комментарий